<?xml version="1.0" standalone="no"?>
<!DOCTYPE svg PUBLIC "-//W3C//DTD SVG 1.1//EN" "http://www.w3.org/Graphics/SVG/1.1/DTD/svg11.dtd" >
<svg xmlns="http://www.w3.org/2000/svg">
  <metadata>Created by iconfont</metadata>
  <defs>
  <font id="iconfont" horiz-adv-x="1024">
    <font-face
      font-family="iconfont"
      font-weight="400"
      font-stretch="normal"
      units-per-em="1024"
      ascent="896"
      descent="-128"
    />
      <missing-glyph />
      
      <glyph glyph-name="zhengcewenjian" unicode="&#59445;" d="M670.1568 844.8a102.4 102.4 0 0 0 72.7552-30.3616l155.136-156.7744a102.4 102.4 0 0 0 29.696-72.0384v-609.3312c0-29.3376-23.808-53.0944-53.0944-53.0944H149.3504a53.0944 53.0944 0 0 0-53.0944 53.0944V791.7056C96.256 821.0432 120.064 844.8 149.3504 844.8H670.208z m0-81.92H178.176v-757.76h667.648V570.5216h-162.4576a10.24 10.24 0 0 0-10.24 10.24l0.0512 181.9136a20.48 20.48 0 0 1-3.072 0.2048z m-141.824-531.456a42.3936 42.3936 0 1 0 0-84.8384H317.952a42.3936 42.3936 0 0 0 0 84.7872h210.432z m156.8768 169.472a42.3936 42.3936 0 0 0 0-84.736H317.952a42.3936 42.3936 0 0 0 0 84.7872h367.3088z m-102.4 169.5744a42.3936 42.3936 0 0 0 0-84.736H317.952a42.3936 42.3936 0 1 0 0 84.736h264.9088z"  horiz-adv-x="1024" />
      
      <glyph glyph-name="jiahao" unicode="&#59396;" d="M564.242286 749.714286v-313.453715H877.714286v-104.502857H564.242286V18.285714h-104.484572l-0.018285 313.472H146.285714v104.484572l313.453715 0.018285V749.714286h104.502857z"  horiz-adv-x="1024" />
      
      <glyph glyph-name="shanchu" unicode="&#59400;" d="M512 822.857143a180.425143 180.425143 0 0 0 179.84-165.540572H910.811429a28.489143 28.489143 0 1 0 0-56.978285h-80.768l0.054857-560.237715A94.957714 94.957714 0 0 0 735.140571-54.857143H288.859429a94.957714 94.957714 0 0 0-94.957715 94.957714V600.283429H113.188571a28.489143 28.489143 0 1 0 0 56.978285h218.971429A180.425143 180.425143 0 0 0 512 822.857143z m261.12-222.573714H250.88V40.045714c0-19.364571 14.500571-35.346286 33.225143-37.668571l4.754286-0.310857h446.281142c19.145143 0 35.291429 14.262857 37.668572 33.225143l0.329143 4.754285V600.283429z m-348.324571-132.937143c15.725714 0 28.489143-12.745143 28.489142-28.489143v-275.382857a28.489143 28.489143 0 1 0-56.978285 0V438.857143c0 15.725714 12.763429 28.489143 28.489143 28.489143z m174.72 0A28.489143 28.489143 0 0 0 628.004571 438.857143v-275.382857a28.489143 28.489143 0 1 0-56.978285 0V438.857143c0 15.725714 12.763429 28.489143 28.489143 28.489143zM512 765.952a123.428571 123.428571 0 0 1-122.550857-108.690286h245.101714A123.428571 123.428571 0 0 1 512 765.988571v-0.054857z"  horiz-adv-x="1024" />
      
      <glyph glyph-name="normal_icon_page_right" unicode="&#59095;" d="M525.31624 424.134026L86.168751 878.230346C65.178954 900.039256 32.926341 901.984652 14.086719 882.530694-4.650513 863.179126-2.705118 829.697842 18.489457 807.888932l409.147439-423.277156L14.086719-43.068118a50.887457 50.887457 0 0 1 0-70.341414c18.839622-19.453957 49.14684-19.453957 67.986462 0l447.441018 462.799406a50.887457 50.887457 0 0 1-2.047785 72.389199 60.921603 60.921603 0 0 1-2.252563 2.354953z m484.608316-4.402738a50.989846 50.989846 0 0 1-2.047785 2.047785 66.655401 66.655401 0 0 1-2.252563 2.354953L566.681497 878.230346C545.589311 900.039256 513.234309 901.984652 494.599465 882.530694c-18.737233-19.453957-16.791837-52.832853 4.300349-74.641762l409.147439-423.277156L494.599465-43.068118a50.887457 50.887457 0 0 1 0-70.341414c18.737233-19.453957 49.14684-19.453957 67.986462 0l447.441018 462.799406a50.887457 50.887457 0 0 1 0 70.341414z"  horiz-adv-x="1024" />
      
      <glyph glyph-name="icon_help" unicode="&#59214;" d="M512-128A512 512 0 1 0 512 896a512 512 0 0 0 0-1024z m0 68.266667A443.733333 443.733333 0 1 1 512 827.733333a443.733333 443.733333 0 0 1 0-887.466666zM525.255111 634.311111c46.648889 0 84.423111-12.344889 113.607111-38.684444 29.184-25.429333 43.633778-60.472889 43.633778-104.106667 0-35.669333-9.443556-65.422222-27.648-88.746667-6.542222-8.021333-27.022222-27.022222-61.098667-56.775111a122.538667 122.538667 0 0 1-30.663111-37.888c-7.964444-14.506667-11.605333-30.606222-11.605333-48.128v-12.288h-77.937778v12.288c0 27.022222 4.266667 50.289778 14.449778 69.12 9.500444 20.366222 37.148444 50.289778 82.261333 90.339556l12.344889 13.824c13.198222 16.782222 20.366222 34.133333 20.366222 53.134222 0 25.486222-7.338667 45.169778-21.162666 59.676444-14.506667 14.506667-35.612444 21.845333-61.895111 21.845334-32.824889 0-56.775111-10.24-71.338667-31.345778-13.084444-17.521778-19.626667-42.325333-19.626667-74.296889H352.426667c0 53.191111 15.36 94.663111 45.852444 125.269333 30.890667 31.402667 73.159111 46.705778 126.976 46.705778z m-13.027555-425.984c15.36 0 28.330667-4.323556 38.684444-14.506667 10.126222-9.500444 15.246222-21.845333 15.246222-37.148444 0-15.36-5.802667-27.648-15.985778-37.774222a54.442667 54.442667 0 0 0-37.831111-14.563556 52.110222 52.110222 0 0 0-37.831111 15.36 50.744889 50.744889 0 0 0-15.36 37.091556c0 15.36 5.176889 27.648 15.36 37.148444 9.955556 10.069333 23.096889 14.449778 37.717334 14.449778z"  horiz-adv-x="1024" />
      
      <glyph glyph-name="riqi" unicode="&#59415;" d="M704 837.12a30.72 30.72 0 0 0 30.72-30.72v-28.1088h60.7744c61.184 0 110.7968-49.6128 110.7968-110.7968v-566.9888a110.7968 110.7968 0 0 0-110.7968-110.7968H228.5056A110.7968 110.7968 0 0 0 117.76 100.5056V667.4944c0 61.184 49.6128 110.7968 110.7968 110.7968H289.28l0.0512 28.1088a30.72 30.72 0 1 0 61.44 0v-28.1088h322.56V806.4a30.72 30.72 0 0 0 30.72 30.72z m140.8-381.1328h-665.6v-355.4816c0-27.2384 22.016-49.3568 49.3056-49.3568h566.9888a49.3568 49.3568 0 0 1 49.3568 49.3568V455.9872zM332.8 230.4a44.8 44.8 0 1 0 0-89.6 44.8 44.8 0 0 0 0 89.6z m179.2 0a44.8 44.8 0 1 0 0-89.6 44.8 44.8 0 0 0 0 89.6z m179.2 0a44.8 44.8 0 1 0 0-89.6 44.8 44.8 0 0 0 0 89.6z m-358.4 153.6a44.8 44.8 0 1 0 0-89.6 44.8 44.8 0 0 0 0 89.6z m179.2 0a44.8 44.8 0 1 0 0-89.6 44.8 44.8 0 0 0 0 89.6z m179.2 0a44.8 44.8 0 1 0 0-89.6 44.8 44.8 0 0 0 0 89.6zM289.28 716.8512H228.4544a49.3568 49.3568 0 0 1-49.3568-49.3568v-150.0672H844.8v150.016a49.3568 49.3568 0 0 1-49.3056 49.408h-60.8256l0.0512-38.4512a30.72 30.72 0 0 0-61.44 0v38.4512h-322.56v-38.4512a30.72 30.72 0 1 0-61.44 0v38.4512z"  horiz-adv-x="1024" />
      
      <glyph glyph-name="icon_checkbox_n" unicode="&#59139;" d="M102.4 793.6m102.4 0l614.4 0q102.4 0 102.4-102.4l0-614.4q0-102.4-102.4-102.4l-614.4 0q-102.4 0-102.4 102.4l0 614.4q0 102.4 102.4 102.4ZM163.84 732.16m51.2 0l593.92 0q51.2 0 51.2-51.2l0-593.92q0-51.2-51.2-51.2l-593.92 0q-51.2 0-51.2 51.2l0 593.92q0 51.2 51.2 51.2Z"  horiz-adv-x="1024" />
      
      <glyph glyph-name="icon_checkbox_s" unicode="&#59138;" d="M204.8 793.6h614.4a102.4 102.4 0 0 0 102.4-102.4v-614.4a102.4 102.4 0 0 0-102.4-102.4H204.8a102.4 102.4 0 0 0-102.4 102.4V691.2a102.4 102.4 0 0 0 102.4 102.4zM419.2768 277.8112l299.9808 326.2976 86.1184-79.2064-378.0096-411.136-246.8864 220.16L258.4064 421.376z"  horiz-adv-x="1024" />
      
      <glyph glyph-name="icon_attachment" unicode="&#59098;" d="M707.84 895.808c31.488 0 62.784-7.232 86.4-14.592 94.464-36.48 149.44-116.864 149.44-211.712a218.944 218.944 0 0 0-70.848-160.64L432.64 92.992a163.52 163.52 0 0 0-47.168-29.12c-15.68-7.36-31.36-7.36-54.912-7.36-15.872 0-39.424 0-55.04 7.36-15.744 7.232-31.488 14.656-39.424 29.12a151.552 151.552 0 0 0-31.36 43.84c-7.808 14.656-7.808 36.352-7.808 51.072 0 36.48 15.744 72.96 39.36 94.912L637.12 669.44c7.872 7.296 23.616 14.656 31.488 14.656a62.08 62.08 0 0 0 39.36-14.72c7.744-7.168 15.744-21.824 15.744-29.184-7.808-14.528-7.808-21.888-15.744-36.48l-408.96-379.52a54.016 54.016 0 0 1-15.808-36.416c0-21.952 23.616-43.84 47.296-43.84 15.744 0 23.552 7.232 31.36 14.656l440.192 416c31.424 29.184 39.296 58.304 39.296 94.848 0 36.608-15.744 65.728-39.296 94.848-23.552 29.184-55.04 43.84-94.4 43.84-39.296 0-78.528-14.656-102.208-43.84L165.44 348.48a261.12 261.12 0 0 1-55.04-72.96 208 208 0 0 1 0-167.872c15.808-29.12 31.488-51.136 54.976-72.96 47.232-43.904 102.144-65.792 165.12-65.792 62.72 0 125.76 21.888 164.992 65.728l448.192 408.768c7.744 14.592 15.744 14.592 31.36 14.592 15.744 0 23.552-7.232 31.488-14.592 7.68-7.232 15.744-14.656 15.744-29.184 0-14.464-7.808-21.888-15.808-29.12l-440.32-416.192c-31.296-29.12-70.656-51.072-109.824-72.896a346.432 346.432 0 0 0-125.952-21.952 346.496 346.496 0 0 0-125.76 21.952c-39.36 14.592-78.592 36.48-110.016 72.96A307.2 307.2 0 0 0 23.744 71.04a311.616 311.616 0 0 0-23.36 116.736c0 43.776 7.808 80.256 23.68 123.968A305.28 305.28 0 0 0 94.592 414.08l440.32 416c47.04 43.84 109.888 65.792 172.8 65.792z"  horiz-adv-x="1024" />
      
      <glyph glyph-name="icon_upload" unicode="&#59146;" d="M535.296 458.624l4.096-3.424 132.896-132.896a30.4 30.4 0 0 0-38.816-46.528l-4.224 3.52-86.848 86.816v-376.256a30.4 30.4 0 0 0-60.416-4.928l-0.384 4.928-0.032 369.28-87.744-80.736a30.4 30.4 0 0 0-38.944-1.888l-4.032 3.712a30.4 30.4 0 0 0-1.888 38.912l3.712 4.064 144.64 132.864a30.4 30.4 0 0 0 37.984 2.56zM512 793.6c164.096 0 299.968-124 317.472-284.8l0.896-10.016 7.104-1.632a247.232 247.232 0 0 0 186.24-228.224l0.288-11.392a247.136 247.136 0 0 0-236.128-246.912l-11.008-0.224h-102.784a30.4 30.4 0 0 0-4.928 60.416l4.928 0.416h102.784a186.304 186.304 0 0 1 20.768 371.424 30.4 30.4 0 0 0-26.592 24.736l-0.512 4.992-0.16 11.552A258.56 258.56 0 0 1 512 732.8c-139.136 0-252.576-109.888-258.336-246.272l-0.16-12.16a30.4 30.4 0 0 0-27.072-31.68 186.336 186.336 0 0 1 10.816-371.2l9.888-0.224h80.096a30.4 30.4 0 0 0 4.96-60.448l-4.96-0.384H247.136A247.136 247.136 0 0 0 186.56 497.184l6.944 1.6 0.96 10.24c16.96 156.224 146.496 278.624 305.792 284.352L512 793.6z"  horiz-adv-x="1024" />
      
      <glyph glyph-name="bitian" unicode="&#59437;" d="M667.84 206.528L501.696 365.12 280.512 430.528l75.712 130.88 167.168-158.528 220.096-65.408-75.648-130.944z m-311.68 0L280.576 337.472 501.76 402.88l166.144 158.528 75.648-130.88-220.16-65.408-167.104-158.592z m80-46.528L490.24 384l-54.016 224h151.552L533.824 384l53.952-224H436.224z"  horiz-adv-x="1024" />
      
      <glyph glyph-name="xiangmu" unicode="&#59428;" d="M870.4 793.6a51.2 51.2 0 0 0 51.2-51.2v-327.68a51.2 51.2 0 0 0-51.2-51.2h-266.24a51.2 51.2 0 0 0-51.2 51.2V742.4a51.2 51.2 0 0 0 51.2 51.2H870.4z m-30.72-81.92h-204.8v-266.24h204.8V711.68z m-419.84-307.2a51.2 51.2 0 0 0 51.2-51.2V25.6a51.2 51.2 0 0 0-51.2-51.2H153.6a51.2 51.2 0 0 0-51.2 51.2v327.68a51.2 51.2 0 0 0 51.2 51.2h266.24z m-30.72-81.92h-204.8v-266.24h204.8v266.24z m481.28-40.96a51.2 51.2 0 0 0 51.2-51.2v-204.8a51.2 51.2 0 0 0-51.2-51.2h-266.24a51.2 51.2 0 0 0-51.2 51.2v204.8a51.2 51.2 0 0 0 51.2 51.2H870.4z m-30.72-81.92h-204.8v-143.36h204.8v143.36zM419.84 793.6a51.2 51.2 0 0 0 51.2-51.2v-204.8a51.2 51.2 0 0 0-51.2-51.2H153.6a51.2 51.2 0 0 0-51.2 51.2V742.4a51.2 51.2 0 0 0 51.2 51.2h266.24z m-30.72-81.92h-204.8v-143.36h204.8V711.68z"  horiz-adv-x="1024" />
      
      <glyph glyph-name="qianyue" unicode="&#59429;" d="M680.704 839.68c23.296 0 42.1888-18.8928 42.1888-42.1888v-74.3424h126.1568c29.2864 0 53.0944-23.808 53.0944-53.1456v-688.64c0-29.2864-23.808-53.0432-53.0944-53.0432H174.9504a53.0944 53.0944 0 0 0-53.0944 53.0944V670.0544c0 29.2864 23.808 53.0432 53.0944 53.0432H301.056l0.0512 74.3936a42.1888 42.1888 0 0 0 84.3776 0v-74.3424h252.9792l0.0512 74.3424c0 23.296 18.8928 42.1888 42.1888 42.1888z m139.4688-198.5024H203.776V10.24h616.448V641.1776z m-266.24-341.9648a42.3936 42.3936 0 0 0 0-84.7872H343.552a42.3936 42.3936 0 0 0 0 84.7872h210.432z m105.472 169.5744a42.3936 42.3936 0 0 0 0-84.7872h-315.904a42.3936 42.3936 0 1 0 0 84.7872h315.904z"  horiz-adv-x="1024" />
      
      <glyph glyph-name="mima" unicode="&#59430;" d="M541.9008 883.2512l377.856-77.056c24.3712-4.9664 41.8816-26.368 41.8816-51.2l-0.1024-407.2448c15.2576-214.6816-135.3216-369.152-438.016-461.7728l-12.8-3.8912-12.6464 4.4032C183.3984-4.096 61.44 121.344 61.44 344.832v410.112c0 24.8832 17.5616 46.336 41.984 51.2L489.9328 883.4048c17.152 3.4304 34.816 3.3792 52.0192-0.1024z m-35.9424-80.2304L143.36 730.6752v-385.8432c0-178.7392 92.4672-277.6576 364.032-374.784l4.864-1.6896 5.12 1.536c251.8528 80.7936 368.8448 200.6016 362.9568 363.52l-0.6144 11.4176-0.0512 385.9968-354.1504 72.192a49.4592 49.4592 0 0 1-19.5584 0z m-7.0656-206.848a144.4864 144.4864 0 0 0 25.856-166.144l19.3024-19.5584 64.4096 65.2288a40.96 40.96 0 1 0 58.368-57.4976l-65.2288-66.0992 26.8288-27.1872 26.0608 26.4192a40.96 40.96 0 0 0 58.368-57.5488l-26.9312-27.1872 20.4288-20.6848a40.96 40.96 0 0 0-58.368-57.5488l-179.6096 182.1184c-53.76-30.72-123.136-22.8352-168.8576 23.552a144.384 144.384 0 0 0 0 202.1376 139.6224 139.6224 0 0 0 199.3728 0zM357.8368 538.624a62.464 62.464 0 0 1 0-87.04 57.7024 57.7024 0 0 1 82.7392 0 62.464 62.464 0 0 1 0 87.04 57.7024 57.7024 0 0 1-82.7392 0z"  horiz-adv-x="1024" />
      
      <glyph glyph-name="xianshi" unicode="&#59413;" d="M890.88 294.6048c-92.4672-124.9792-227.84-204.032-378.88-204.032s-286.4128 79.0528-378.88 204.032c-40.8576 55.1936-40.8576 137.216 0 192.4096C225.5872 612.0448 360.96 691.0976 512 691.0976s286.4128-79.0528 378.88-204.0832c40.8576-55.1936 40.8576-137.216 0-192.4096z m-41.0624 147.0976C764.0064 565.504 640.512 636.416 511.0784 636.416c-129.536 0-252.928-70.9632-338.7392-194.7648a92.16 92.16 0 0 1 0-101.7856c85.76-123.8016 209.2544-194.7648 338.7392-194.7648s252.928 70.9632 338.7392 194.7648a92.16 92.16 0 0 1 0 101.7856z m-337.5616-241.8688a191.1296 191.1296 0 1 0 0 382.3104 191.1296 191.1296 0 0 0 0-382.3104z m0 327.68a136.5504 136.5504 0 1 1 0-273.0496 136.5504 136.5504 0 0 1 0 273.0496z"  horiz-adv-x="1024" />
      
      <glyph glyph-name="yincang" unicode="&#59414;" d="M910.1824 526.9504a30.5664 30.5664 0 0 0-2.6624-43.1616c-37.12-32.768-75.3152-60.4672-114.6368-83.2512l51.712-137.8304a30.5664 30.5664 0 0 0-56.1152-24.1664l-1.1264 2.7136-49.2032 131.1744c-63.1808-28.4672-128.9728-44.5952-197.2736-48.2816v-133.2736a30.5664 30.5664 0 0 0-61.0304-2.9696l-0.1536 2.9696V324.096a548.608 548.608 0 0 0-197.2736 48.2816l-49.152-131.1744a30.5664 30.5664 0 0 0-58.1632 18.6368l0.8704 2.816 51.712 137.8304A715.1616 715.1616 0 0 0 113.0496 483.84a30.5664 30.5664 0 0 0 40.448 45.824 640 640 0 0 1 121.7536-85.6064 30.5664 30.5664 0 0 0 8.96-4.6592A490.3936 490.3936 0 0 1 510.2592 384.512a490.6496 490.6496 0 0 1 226.0992 54.8864 29.9008 29.9008 0 0 0 7.68 4.3008l1.2288 0.3584a639.9488 639.9488 0 0 1 121.8048 85.6064 30.5664 30.5664 0 0 0 43.1104-2.6624z"  horiz-adv-x="1024" />
      
      <glyph glyph-name="shanchu_1" unicode="&#59297;" d="M512 896a512 512 0 1 0-0.056889-1024.056889A512 512 0 0 0 512 896z m219.591111-665.144889L578.332444 384l153.144889 153.144889a47.047111 47.047111 0 0 1 0 66.389333 47.047111 47.047111 0 0 1-66.389333 0L512 450.389333 358.855111 603.591111a47.047111 47.047111 0 0 1-66.389333 0 47.047111 47.047111 0 0 1 0-66.389333L445.610667 384 292.408889 230.855111a47.047111 47.047111 0 0 1 0-66.389333 47.047111 47.047111 0 0 1 66.389333 0L512 317.610667l153.144889-153.144889a47.047111 47.047111 0 0 1 66.389333 0 46.819556 46.819556 0 0 1 0 66.389333z"  horiz-adv-x="1024" />
      
      <glyph glyph-name="xiazai" unicode="&#59323;" d="M877.49 514.532H668.638V827.809H355.36v-313.277H146.51l365.489-365.49 365.49 365.49zM146.51 44.617v-104.425h730.98V44.617H146.51z"  horiz-adv-x="1024" />
      
      <glyph glyph-name="bofang" unicode="&#59337;" d="M509.6 895.488c281.184 0 509.12-227.936 509.12-509.12a509.12 509.12 0 1 0-1018.24 0C0.512 667.584 228.48 895.52 509.632 895.52z m-93.024-300.832c-25.312 0-45.824-19.776-45.824-44.16v-328.192c0-8.096 2.304-16.064 6.624-22.912 13.12-20.864 41.28-27.52 62.944-14.848l278.624 162.752a44.48 44.48 0 0 1 15.232 14.592c13.312 20.768 6.592 47.936-14.944 60.736l-278.624 165.472a47.168 47.168 0 0 1-24.032 6.56z"  horiz-adv-x="1024" />
      
      <glyph glyph-name="anzhuangshipin" unicode="&#59325;" d="M743.3472 768A75.8528 75.8528 0 0 0 819.2 692.1472v-95.7952l147.6352 86.8352A37.9136 37.9136 0 0 0 1024 650.496v-507.392a37.9136 37.9136 0 0 0-57.1648-32.6912L819.2 197.2736v-121.4208A75.8528 75.8528 0 0 0 743.3472 0H75.8528A75.8528 75.8528 0 0 0 0 75.8528V692.1472A75.8528 75.8528 0 0 0 75.8528 768h667.4944z m0-61.44H75.8528a14.4128 14.4128 0 0 1-14.2336-12.0832l-0.1792-2.3296v-616.2944c0-7.168 5.2224-13.1072 12.0832-14.2336l2.3296-0.1792h667.4944c7.168 0 13.1072 5.2224 14.2336 12.0832l0.1792 2.3296V692.1472a14.4128 14.4128 0 0 1-12.0832 14.2336l-2.3296 0.1792z m219.2128-97.152l-133.12-78.3104v-268.5696l133.12-78.3104V609.408zM268.8 614.4a115.2 115.2 0 1 0 0-230.4 115.2 115.2 0 0 0 0 230.4z m0-61.44a53.76 53.76 0 1 1 0-107.52 53.76 53.76 0 0 1 0 107.52z"  horiz-adv-x="1024" />
      
      <glyph glyph-name="shangjiantou" unicode="&#59348;" d="M477.44 619.52L81.92 224.128a50.816 50.816 0 1 1 71.872-71.872l359.488 359.424 359.488-359.488A50.816 50.816 0 0 1 944.64 224L549.248 619.456a50.816 50.816 0 0 1-71.872 0z"  horiz-adv-x="1024" />
      
      <glyph glyph-name="xiajiantou" unicode="&#59349;" d="M477.44 151.552L81.92 546.944A50.816 50.816 0 1 0 153.856 618.88l359.488-359.424 359.488 359.488a50.816 50.816 0 0 0 71.872-71.872l-395.456-395.392a50.816 50.816 0 0 0-71.872 0z"  horiz-adv-x="1024" />
      
      <glyph glyph-name="xiazaizhongxin" unicode="&#59341;" d="M512 329.2416c16.128 0 29.44-12.288 31.0272-27.9808l0.1536-3.2v-317.1328l113.5104 113.4592a31.1808 31.1808 0 0 0 41.5744 2.2784l2.56-2.2784c11.3408-11.3664 12.1088-29.312 2.2528-41.5744l-2.2784-2.5344-166.7584-166.7584a31.1808 31.1808 0 0 0-41.5744-2.2528l-2.5088 2.2528-166.7584 166.7584a31.1808 31.1808 0 0 0 41.5744 46.3872l2.5344-2.2784 113.4848-113.536V298.0608c0 17.2288 13.9776 31.1808 31.2064 31.1808zM512 893.5936c147.5584 0 269.9008-109.9264 288.6144-253.2608l0.8448-7.1936 4.0704-0.3072a239.1296 239.1296 0 0 0 218.368-231.296l0.1024-6.9376a239.104 239.104 0 0 0-232.192-239.0016l-6.912-0.1024H686.336a31.1808 31.1808 0 0 0-3.1744 62.208l3.1744 0.1536h98.5344a176.7424 176.7424 0 0 1 6.1952 353.3568l-6.1952 0.128h-43.776l-0.512 37.6064a228.7104 228.7104 0 0 1-457.216 0.3328l-0.1024-6.7584v-31.1808H239.104a176.7424 176.7424 0 0 1-6.1952-353.3568l6.1952-0.128h95.7952a31.1808 31.1808 0 0 0 3.1744-62.208l-3.1744-0.1536H239.104a239.104 239.104 0 0 0-20.6336 477.3376l4.0192 0.3072 0.768 6.4512C241.152 780.416 359.68 889.8304 504.4992 893.5168L512 893.5936z"  horiz-adv-x="1024" />
      
      <glyph glyph-name="shipin" unicode="&#59310;" d="M0 48.3328c0-62.7712 50.8928-113.7664 113.7664-113.7664h796.4672A113.8176 113.8176 0 0 1 1024 48.3328V731.0336A113.7664 113.7664 0 0 1 910.2336 844.8H113.7664A113.7664 113.7664 0 0 1 0 731.0336v-682.7008z m796.4672 341.3504l-455.168-284.416V674.0992l455.168-284.416z"  horiz-adv-x="1024" />
      
      <glyph glyph-name="ruanjian" unicode="&#59311;" d="M281.6 768H409.6V896h409.6c136.5504 0 204.8-68.2496 204.8-204.8v-614.4c0-136.5504-68.2496-204.8-204.8-204.8H204.8c-136.5504 0-204.8 68.2496-204.8 204.8V691.2c0 136.5504 68.2496 204.8 204.8 204.8h76.8v-128z m373.3504-513.024c-6.8096 0-11.3152-2.048-13.6192-5.9904a89.8048 89.8048 0 0 1-7.424-22.016l-48.7936-201.7792-0.8192-3.84-1.3312-6.5536-0.6144-3.328a44.8512 44.8512 0 0 1-0.768-6.4c0-10.24 5.9904-15.36 17.92-15.36 4.7616 0 8.3968 1.024 10.9056 3.1744a19.2512 19.2512 0 0 1 5.632 9.0112c1.1776 3.8912 2.6112 9.1136 4.2496 15.7696l48.9984 201.7792 1.3312 5.376c1.536 6.7072 2.3552 11.52 2.3552 14.3872a14.7968 14.7968 0 0 1-4.608 11.5712c-3.1232 2.7648-7.5776 4.1472-13.4144 4.1472z m39.0144-37.2736v-49.152l123.0336-47.616-123.0336-48.3328v-49.5104l176.0768 76.6464v41.984l-176.128 75.9808z m-133.5296 0.7168l-176.0768-76.3392v-42.3424l176.128-76.288v49.5104l-122.7264 48.2816 122.6752 47.2576v49.92zM281.6 512H153.6V384h128V512zM409.6 640H281.6v-128H409.6V640zM281.6 768H153.6V640h128V768z"  horiz-adv-x="1024" />
      
      <glyph glyph-name="guanbi" unicode="&#59329;" d="M588.544 386.304l414.4 414.464a54.272 54.272 0 0 1 0 76.288L1000.704 879.36a54.272 54.272 0 0 1-76.352 0L509.952 464.32 95.488 879.36A54.272 54.272 0 0 1 19.2 879.36L16.896 877.056a53.248 53.248 0 0 1 0-76.288L431.36 386.304 16.896-28.096a54.272 54.272 0 0 1 0-76.352l2.304-2.24a54.272 54.272 0 0 1 76.288 0l414.464 414.4 414.4-414.4a54.272 54.272 0 0 1 76.352 0l2.24 2.24a54.272 54.272 0 0 1 0 76.352L588.544 386.304z"  horiz-adv-x="1024" />
      
      <glyph glyph-name="chanpinzhibao" unicode="&#59406;" d="M967.2704 553.2928a30.72 30.72 0 0 0 29.4656-31.9232c-8.448-213.4016-116.48-359.552-320.0512-433.3824l-0.512-0.1792-1.6128-0.5888-6.3232-2.304-4.5568-1.6896-0.6912-0.256v-127.744a30.72 30.72 0 0 0-27.5712-30.5664l-3.1488-0.1536a30.72 30.72 0 0 0-30.72 30.72v170.624l20.1216 7.3984 25.3696 9.3184 3.2 1.1776 1.92 0.6912 1.2288 0.4608 1.5872 0.5888 0.384 0.128c180.608 65.5104 272.5376 189.8496 279.9872 378.1888a30.72 30.72 0 0 0 31.9232 29.4912z m-910.5408 0a30.72 30.72 0 0 0 31.9232-29.4912c7.424-188.3392 99.3792-312.6784 279.9872-378.1888l0.384-0.128c0.6144-0.256 0.6144-0.256 1.5872-0.5888l6.3488-2.3296 25.344-9.3184 20.1472-7.3984v-170.624a30.72 30.72 0 0 0-30.72-30.72l-3.1488 0.1536a30.72 30.72 0 0 0-27.5712 30.5664v127.744l-0.6912 0.256-4.5568 1.664-6.3232 2.3296-1.5872 0.5888-0.512 0.1792C143.7184 161.8176 35.6608 307.968 27.2384 521.3696a30.72 30.72 0 0 0 29.4656 31.9232zM628.7872 843.4688a201.472 201.472 0 0 0 201.344-201.344 200.8064 200.8064 0 0 0-54.5792-137.856l-4.3264-4.4544-213.9904-214.016a52.0192 52.0192 0 0 0-73.5744 0l-214.016 214.016a200.8576 200.8576 0 0 0-58.88 142.2336c-0.0512 112.9984 92.2624 207.104 202.88 201.1648 27.648-1.4848 60.928-12.2368 100.6848-31.8464a11.8528 11.8528 0 0 1 10.7008 0.128c40.1152 21.0944 74.4192 32 103.7568 32z m-0.0256-61.44c-17.664 0-43.0592-8.064-75.1872-24.96a73.344 73.344 0 0 0-66.3552-0.8192c-33.024 16.256-58.9568 24.6528-76.8768 25.6-74.368 4.0192-138.1632-61.0304-138.1376-139.776 0.0256-37.5808 14.8992-72.7552 40.9088-98.816l207.36-207.36 206.9504 207.0016 3.6096 3.712a139.0848 139.0848 0 0 1 37.6576 95.488 140.032 140.032 0 0 1-139.9296 139.9296z"  horiz-adv-x="1024" />
      
      <glyph glyph-name="a-cybersecurity_icon_shangbaobeifen2" unicode="&#59216;" d="M279.476148 251.259259a18.962963 18.962963 0 0 0 14.923852-7.262815l29.297778-37.357037a7.585185 7.585185 0 0 0-5.973334-12.269037h-74.922666l-113.777778-170.666666h765.970963l-113.777778 170.666666h-77.558518a7.585185 7.585185 0 0 0-5.916445 12.325926l29.961482 37.432889a18.962963 18.962963 0 0 0 14.791111 7.130074H796.444444a28.444444 28.444444 0 0 0 21.997037-10.391703l1.668741-2.275556 151.703704-227.555556c12.136296-18.204444 0.018963-42.363259-21.18163-44.126814L948.148148-33.185185H75.851852c-21.883259 0-35.252148 23.476148-24.955259 42.097778l1.289481 2.123851 151.703704 227.555556a28.444444 28.444444 0 0 0 20.840296 12.515556L227.555556 251.259259h51.920592zM512 858.074074c172.809481 0 312.888889-140.079407 312.888889-312.888889 0-80.213333-47.881481-176.943407-142.999704-291.821037l-12.970666-15.416889-13.520593-15.644444a1609.955556 1609.955556 0 0 0-6.959407-7.888593l-14.373926-15.966815a1952.426667 1952.426667 0 0 0-38.343112-40.865185l-16.308148-16.744296c-5.537185-5.613037-11.150222-11.264-16.877037-16.933926l-17.426963-17.180444a47.407407 47.407407 0 0 0-66.275555 0.037925l-8.590222 8.438519c-5.802667 5.707852-11.529481 11.396741-17.142519 17.066667l-16.611556 16.839111a1917.307259 1917.307259 0 0 0-60.814222 65.175703l-13.805037 15.758223a1488.402963 1488.402963 0 0 0-6.693926 7.793777l-12.970666 15.435852C247.030519 368.165926 199.111111 464.933926 199.111111 545.185185 199.111111 717.994667 339.190519 858.074074 512 858.074074z m0-56.888889c-141.387852 0-256-114.612148-256-256 0-50.555259 26.130963-113.701926 78.696296-188.700444l9.576297-13.349926c6.542222-8.988444 13.463704-18.147556 20.745481-27.458371l11.188148-14.089481 5.82163-7.130074 12.022518-14.468741a1514.571852 1514.571852 0 0 1 32.483556-37.167407l13.956741-15.303111c7.111111-7.717926 14.430815-15.511704 21.959111-23.381334l15.36-15.890963c10.391704-10.676148 21.162667-21.504 32.312889-32.483555l1.896296-1.820445 18.24237 18.128593c5.385481 5.404444 10.676148 10.770963 15.890963 16.118518l15.341037 15.890963a1837.074963 1837.074963 0 0 1 35.934815 38.684445l13.406815 15.056592c4.361481 4.968296 8.666074 9.91763 12.856889 14.810075l12.306963 14.582518c86.20563 103.594667 129.991111 188.586667 131.925333 253.477926l0.075852 4.494222C768 686.573037 653.387852 801.185185 512 801.185185z m0-132.740741a123.259259 123.259259 0 1 0 0-246.518518 123.259259 123.259259 0 0 0 0 246.518518z m0-56.888888a66.37037 66.37037 0 1 1 0-132.740741 66.37037 66.37037 0 0 1 0 132.740741z"  horiz-adv-x="1024" />
      
      <glyph glyph-name="xiaoshourexian" unicode="&#59387;" d="M660.4288 841.5488c88.4224-41.4208 148.4288-102.9632 180.4032-185.2928l3.328-8.9088c5.888-16.4608 13.9776-36.0448 23.9616-58.368l9.0624-19.7632 8.0896-17.2032 8.704-17.9968 18.688-37.504 35.3792-70.2208 10.5472-22.784c1.7152-3.7376 3.2512-7.2192 4.6592-10.5728 9.7792-23.2704 13.7216-38.6048 8.96-54.0672-4.864-15.616-17.7152-26.4704-39.7312-39.936-12.1344-7.424-26.0352-14.7456-38.656-20.736l-20.0704-9.344-0.0512-4.736c-0.4352-36.8896-2.048-67.712-4.8128-92.5952l-0.8704-7.2704c-6.6816-52.6336-47.3856-93.312-100.48-110.5664-21.4272-6.9632-45.6448-10.8544-72.6528-11.776l-2.1248-0.0256v-101.8112a28.16 28.16 0 0 0-25.088-28.0064l-3.072-0.1536a28.16 28.16 0 0 0-27.9808 25.088l-0.1536 3.072v159.616l29.3888-1.28c33.664-1.536 61.7728 1.536 84.3008 8.832 33.9456 11.0336 58.368 35.4304 61.9776 64.1024 1.664 12.9536 2.944 28.16 3.84 45.568l0.768 18.176 0.512 19.6608 0.256 21.0944V305.152l31.9488 14.5152 20.224 9.4464c10.9312 5.1968 23.1936 11.6224 33.3568 17.8432l6.8096 4.352c2.048 1.408 3.9168 2.7392 5.504 3.968l1.3568 1.1008-0.4096 1.408-0.9472 2.9184-2.4832 6.656-4.096 9.6512-12.672 27.4176-44.6976 88.6528-10.7776 21.888-6.1696 12.8256-8.3456 17.664a1538.1504 1538.1504 0 0 0-13.8752 30.6432l-8.0384 18.7904a703.5136 703.5136 0 0 0-13.056 33.536c-25.856 72.2688-76.288 125.44-154.624 162.1504-36.1728 16.9472-83.5328 26.5216-133.504 28.0832V541.952a151.04 151.04 0 0 0 103.8848-221.6448l55.04-41.2672a47.1808 47.1808 0 1 0-36.0704-43.392l-55.0912 41.344a150.9888 150.9888 0 1 0-124.0832 264.96V817.0752c-57.856-5.0688-114.9952-20.7872-158.8224-48.0768-72.2688-44.9792-106.1632-75.1872-145.8944-136.704-38.2208-59.1872-48.7936-157.4912-16.9728-261.6832 10.9056-35.7888 31.0784-80.4608 60.416-133.76l11.4688-20.4032 12.288-21.1968 6.5024-10.9056 13.5936-22.4256 11.392-18.3296v-222.3872a28.16 28.16 0 0 0-56.1664-3.072l-0.1536 3.072V127.488l-3.1488 5.12a1924.352 1924.352 0 0 0-39.936 67.712l-11.52 21.0176c-25.9072 48.1024-44.672 89.8048-56.2432 125.2864l-2.3808 7.5008c-36.48 119.5008-24.0384 235.008 23.552 308.6848 44.8256 69.4272 84.6848 104.96 163.4304 153.984C371.5072 887.3984 552.8832 891.9296 660.4288 841.5488z m-185.6-353.28a94.6688 94.6688 0 1 1 0-189.3632 94.6688 94.6688 0 0 1 0 189.3632z"  horiz-adv-x="1024" />
      
      <glyph glyph-name="huadongjiantou" unicode="&#59330;" d="M55.594667 425.002667H828.16L630.869333 619.52a13.482667 13.482667 0 0 0 0 18.773333l39.594667 40.533334a12.714667 12.714667 0 0 0 18.304 0l248.32-244.821334a13.312 13.312 0 0 0 0.853333-0.768l1.28-1.365333 38.357334-37.717333A13.397333 13.397333 0 0 0 981.333333 384a13.397333 13.397333 0 0 0-3.754666-10.112l-39.68-39.082667a13.738667 13.738667 0 0 0-0.768-0.725333l-248.362667-244.906667a12.714667 12.714667 0 0 0-18.304 0l-39.594667 40.618667a13.482667 13.482667 0 0 0 0 18.730667l195.413334 192.64H55.594667a13.098667 13.098667 0 0 0-12.928 13.226666v57.386667c0 7.338667 5.802667 13.226667 12.928 13.226667z"  horiz-adv-x="1024" />
      
      <glyph glyph-name="tongguo" unicode="&#59332;" d="M511.488-126.8224c-282.1632 0-511.0784 228.864-511.0784 510.976C0.4096 666.5728 229.2224 895.4368 511.488 895.4368c282.2144 0 510.976-228.7616 510.976-511.0784 0-282.2144-228.7616-511.1296-510.976-511.1296z m298.1888 667.904a47.9744 47.9744 0 0 1-67.4816 0l-270.336-268.8-135.0656 134.4a47.8208 47.8208 0 0 1-67.4816 0 47.2576 47.2576 0 0 1 0-67.1744l168.9088-167.936a47.9232 47.9232 0 0 1 67.584 0l303.9744 302.4384a47.4112 47.4112 0 0 1-0.1024 67.072z"  horiz-adv-x="1024" />
      
      <glyph glyph-name="lianxidianhua" unicode="&#59336;" d="M704.4096 438.912c0-19.0208 12.672-31.6928 31.6928-31.6928s31.6928 12.672 31.6928 31.6928a190.7712 190.7712 0 0 1-190.208 190.208c-19.0464 0-31.7184-12.672-31.7184-31.6928s12.7232-31.6928 31.6928-31.6928a127.1808 127.1808 0 0 0 126.848-126.8224z m126.8224 0c0-19.0208 12.672-31.6928 31.6928-31.6928s31.6928 12.672 31.6928 31.6928c0 174.336-142.6944 317.0304-317.0304 317.0304-19.0464 0-31.6928-12.6976-31.6928-31.744 0-19.0208 12.6976-31.6928 31.6928-31.6928 139.4944 0 253.6448-114.176 253.6448-253.5936z m-428.0064 110.9504c34.9184 34.8416 38.0672 88.7808 6.3744 126.8224l-98.304 123.648c-31.6672 41.1904-91.904 47.5392-133.1712 15.872-3.1488-3.2256-6.2976-3.2256-6.2976-6.4L86.1952 724.224C3.7632 641.792 121.088 419.8912 333.568 207.488c212.352-212.4032 431.0528-326.5536 513.4592-247.296l85.6064 85.632c38.0672 38.0416 38.0672 98.304 0 133.12l-6.2976 6.4-123.6736 98.2528c-37.9904 31.6928-91.8784 28.544-126.7712-6.3488l-53.888-53.9392c-57.088 34.9184-107.776 72.96-152.192 117.3248-44.3648 44.416-82.3808 95.1296-117.248 152.2176l50.688 57.0112z m-44.3392 85.6064c9.4976-12.6976 9.4976-31.744-3.2256-41.2416l-69.7344-72.9088a33.6896 33.6896 0 0 1-6.2976-38.0416 822.4512 822.4512 0 0 1 139.4688-187.008 822.272 822.272 0 0 1 187.008-139.52 33.7152 33.7152 0 0 1 38.0672 6.4l72.9088 72.8832c12.6976 12.672 28.5184 12.672 41.2416 3.1488l123.6224-101.4272s3.1488 0 3.1488-3.1488a30.6432 30.6432 0 0 0 0-44.416l-85.6064-85.632c-41.1648-41.1648-237.7472 63.4368-424.8064 247.3472C187.6992 435.7632 86.272 635.4176 127.488 676.6848l88.7296 88.7808c12.6976 9.5232 34.8928 9.5232 44.3904-6.3744l98.304-123.648v0.0256z"  horiz-adv-x="1024" />
      
      <glyph glyph-name="youxiang" unicode="&#59340;" d="M978.048 671.8976c-4.864 25.3952-19.968 40.6272-45.312 44.6464-0.512 0-1.024 0.5376-1.4848 0.5376-0.4608 0-0.9472 0.4864-1.4848 0.4864l-0.9472 0.512H126.2848c-12.1344 0-23.3472-1.536-34.0992-4.5568l-1.4848-0.512a73.216 73.216 0 0 1-50.6368-69.504v-497.9968c0-19.8144 6.3488-39.6288 18.0224-55.3216 1.024-1.536 2.432-3.0976 3.9168-5.12l0.4864-0.512 1.024-1.024a98.5856 98.5856 0 0 1 73.6-32.9728h761.0624c38.4768 0 72.192 27.392 79.9488 64.9984l0.5376 1.4848v0.512c0.9472 5.5808 1.9712 11.1616 1.9712 16.256V657.5872c-1.024 4.0448-1.4848 8.6272-2.5088 14.2592l-0.0768 0.0512zM346.88 389.632l-91.6992-85.8112c-52.6848-49.2032-105.3696-97.9968-158.1056-147.712V601.2416l249.8048-211.6864v0.0768z m328.2688 1.024c82.944 70.0672 164.9152 139.6224 247.808 209.664v-436.0704l-103.9104 94.9248-143.8464 131.456h-0.0512z m-394.6496-140.544l109.824 102.0672a11576.832 11576.832 0 0 1 54.6048-46.2592c10.1888-8.6016 20.48-17.2544 30.2592-25.856l13.1584-11.2128c14.1824-12.16 27.2896-12.16 41.8816 0 33.2288 27.9296 66.3808 56.3968 100.5568 84.7872l60.4928-55.296c69.2992-63.4624 138.0352-126.4384 207.7952-189.8752H129.2032c50.7904 47.6672 101.0176 94.3872 151.2704 141.6448z m229.2736 76.1344c-85.8368 72.6272-171.52 145.408-257.1008 218.3424L117.5808 659.2768c58.9568 1.9712 317.5424 3.4304 536.5248 3.4304 127.3088 0 216.1152-0.4608 251.6992-1.4592L509.7472 326.144v0.0768z"  horiz-adv-x="1024" />
      
      <glyph glyph-name="anzhuangzhidao" unicode="&#59412;" d="M362.4192 836.7104c12.9536 0 25.8048-2.2528 37.9904-6.656l42.752-15.4624a30.72 30.72 0 0 0-20.864-57.7792l-42.752 15.4624a50.3808 50.3808 0 0 1-17.152 2.9952h-224.256c-27.648 0-50.0992-22.528-50.0992-50.4064v-608.3072c0-27.8528 22.4512-50.4064 50.0992-50.4064h241.0496c13.2352 0 26.1888-3.6608 37.4528-10.624l99.3536-61.3376c3.3024-2.0224 7.4496-1.9456 10.6496 0.2304l88.6784 59.6224c11.776 7.8848 25.6 12.1088 39.7824 12.1088h230.7584c27.648 0 50.0992 22.528 50.0992 50.4064V724.864a50.2528 50.2528 0 0 1-50.0992 50.4064h-245.9904c-2.56 0-4.992-0.9984-6.8352-2.7904l-59.4944-57.7024a9.8304 9.8304 0 0 1-2.9952-7.0656l-0.3328-510.08a30.72 30.72 0 0 0-61.44 0.0512l0.3328 510.08c0 19.2512 7.8336 37.6832 21.6576 51.0976l59.4944 57.728a71.2704 71.2704 0 0 0 49.6128 20.1216h245.9904a111.6928 111.6928 0 0 0 111.5392-111.8464v-608.3072a111.6928 111.6928 0 0 0-111.5392-111.8464H655.104a9.8304 9.8304 0 0 1-5.4784-1.664l-88.6784-59.648a71.2704 71.2704 0 0 0-77.2096-1.4848l-99.3792 61.3376a9.8304 9.8304 0 0 1-5.1712 1.4592H138.1376a111.6928 111.6928 0 0 0-111.5392 111.8464V724.864a111.6928 111.6928 0 0 0 111.5392 111.8464h224.256z m38.3488-496.7936a30.72 30.72 0 1 0 0-61.44h-121.6512a30.72 30.72 0 1 0 0 61.44h121.6512z m0 202.752a30.72 30.72 0 1 0 0-61.44h-202.752a30.72 30.72 0 1 0 0 61.44h202.752z"  horiz-adv-x="1024" />
      
      <glyph glyph-name="peixunrenzheng" unicode="&#59408;" d="M265.344 531.072c92.6208 0 167.7312-74.624 167.7312-166.656 0-70.9376-44.5952-131.5328-107.4176-155.5968h84.864c66.8928 0 121.472-52.224 130.816-119.5008l70.144 187.8016a30.72 30.72 0 0 0 57.5488-21.504l-128.256-343.168-0.2048-0.5632-0.7936-1.8176 0.9984 2.3808a31.0272 31.0272 0 0 0-11.776-14.848 40.3712 40.3712 0 0 0-3.584-2.048 26.9568 26.9568 0 0 0-1.9712-0.8704l-0.512-0.1792a27.2384 27.2384 0 0 0-6.912-1.7664 36.224 36.224 0 0 0-2.944-0.256h-1.6384a30.464 30.464 0 0 0-1.792 0.0768L512-107.52a31.0528 31.0528 0 0 0-10.0352 1.6896l-0.7168 0.256-0.6144 0.2304a30.5408 30.5408 0 0 0-1.792 0.768l2.4064-0.9984a31.0272 31.0272 0 0 0-14.0032 10.5984 30.8992 30.8992 0 0 0-5.9648 17.6128V68.864c0 43.8528-32.2048 78.5408-70.7584 78.5408H139.8784c-38.5536 0-70.7584-34.688-70.7584-78.5408V-76.8a30.72 30.72 0 1 0-61.44 0v145.664c0 76.8 58.6752 139.9808 132.1984 139.9808h65.1264c-62.8224 24.064-107.392 84.6336-107.392 155.5456 0 92.0576 75.0848 166.656 167.7312 166.656zM914.176 875.52c56.4992 0 102.144-46.1312 102.144-102.8864v-757.6576c0-56.7552-45.6448-102.8864-102.144-102.8864H641.3568a30.72 30.72 0 1 0 0 61.44H914.176c22.4 0 40.704 18.4832 40.704 41.4464V772.608c0 22.9632-18.304 41.472-40.704 41.472H307.1488c-22.4 0-40.704-18.5088-40.704-41.472v-184.0384a30.72 30.72 0 1 0-61.44 0v184.064C205.0048 829.3632 250.6752 875.52 307.1488 875.52H914.176zM265.344 469.632c-58.8032 0-106.2912-47.2064-106.2912-105.216 0-58.0608 47.488-105.2416 106.2912-105.2416 58.7776 0 106.2912 47.1808 106.2912 105.216 0 58.0352-47.5136 105.216-106.2912 105.216z m522.9312-5.888a30.72 30.72 0 1 0 0-61.44h-157.8752a30.72 30.72 0 1 0 0 61.44h157.8752z m0 186.2912a30.72 30.72 0 1 0 0-61.44H433.0752a30.72 30.72 0 1 0 0 61.44h355.2z"  horiz-adv-x="1024" />
      
      <glyph glyph-name="RMA" unicode="&#59407;" d="M512.7168 896c137.0368 0 265.472-54.144 360.4992-148.4288V818.4064c0 15.872 12.0832 28.9536 27.5456 30.5408l3.1488 0.1536c15.872 0 28.928-12.0832 30.5152-27.5456l0.1536-3.1488v-177.3056H758.528a30.6944 30.6944 0 0 0-3.1488 61.184l3.1488 0.1792 72.96 0.0256a449.0752 449.0752 0 0 1-318.7712 132.1472C263.8336 834.6368 62.08 632.8832 62.08 384c0-248.8832 201.7536-450.6368 450.6368-450.6368 228.096 0 419.5072 170.4448 447.232 394.8288 0.8192 6.912 1.536 13.824 2.048 20.7616a30.6944 30.6944 0 1 0 61.184-4.6848c-0.5888-7.9104-1.3824-15.7696-2.3552-23.6032C989.3376 65.6128 771.8912-128 512.7168-128c-282.7776 0-512 229.2224-512 512s229.2224 512 512 512z m-34.944-280.96c15.872 0 28.9536-12.0576 30.5408-27.5456l0.1536-3.1232v-250.8288h154.5472c15.872 0 28.9536-12.0832 30.5408-27.5456l0.1536-3.1488c0-15.872-12.0832-28.928-27.5456-30.5152l-3.1488-0.1536h-215.9104V584.3712c0 16.9472 13.7216 30.6688 30.6688 30.6688z"  horiz-adv-x="1024" />
      
      <glyph glyph-name="zizhuanquan" unicode="&#59409;" d="M512.064 876.528c134.24-86.976 275.936-137.712 425.136-152.208a11277.808 11277.808 0 0 1-0.384-89.216v-39.28c0-13.488 0-27.12 0.032-40.8l0.064-27.328c0.128-54.608 0.32-108.256 0.384-152.64v-38.128c-0.016-9.328-0.048-17.936-0.096-25.712-0.736-130.448-142.496-270.368-425.28-419.744C228.432 40.848 86.72 180.752 86.72 311.216V337.12c0.064 53.008 0.224 124.848 0.272 202.128v61.376l-0.032 31.072-0.032 20.736c-0.048 24.176-0.112 48.272-0.208 71.904 149.168 14.496 290.96 65.232 425.36 152.208z m-0.016-60.416l-4.896-2.976c-116.88-70.176-239.424-114.88-367.296-133.856l-1.808-0.24 0.032-12.464 0.032-15.2 0.032-15.52 0.032-28.608v-74.24a112404.288 112404.288 0 0 0-0.192-138.24v-10.24l-0.016-9.104v-1.696l-0.016-7.872v-1.472l-0.016-9.28v-1.216l-0.016-11.52v-0.896l-0.016-30.24c0-101.488 121.456-224.768 371.552-360.384l2.432-1.296 2.4 1.28c246.704 134.096 368.32 256.176 371.648 357.168l0.064 3.52c0.048 7.12 0.08 14.176 0.096 21.984V376.16v3.584l-0.016 7.52-0.224 88.656a92252.64 92252.64 0 0 0-0.16 61.44l-0.032 8.64-0.064 45.664v40.752c0.016 15.392 0.048 29.728 0.096 43.152v3.472l-1.648 0.224c-127.888 18.992-250.368 63.68-367.136 133.856l-4.864 2.976zM512 599.152a25.6 25.6 0 0 0 25.6-25.6v-149.36h149.36a25.6 25.6 0 1 0 0-51.2H537.6v-149.376a25.6 25.6 0 1 0-51.2 0v149.376h-149.36a25.6 25.6 0 1 0 0 51.2H486.4v149.344a25.6 25.6 0 0 0 25.6 25.6z"  horiz-adv-x="1024" />
      
      <glyph glyph-name="gaoxingneng" unicode="&#59410;" d="M103.904 411.952a66.56 66.56 0 0 0 25.616-128v-106c0-9.152 4.864-17.6 12.8-22.176L499.2-50.272a25.6 25.6 0 0 1 25.6 0l356.896 206.048a25.6 25.6 0 0 1 12.8 22.176v82.032a25.6 25.6 0 1 0 51.2 0v-82.032a76.8 76.8 0 0 0-38.4-66.512L550.4-94.608a76.8 76.8 0 0 0-76.8 0L116.704 111.44a76.8 76.8 0 0 0-38.4 66.512v105.984a66.576 66.576 0 0 0 25.6 128.016z m349.104 127.36c8.256 0 15.152-1.568 20.688-4.704 5.536-3.136 10-7.168 13.408-12.112 3.392-4.928 6.256-10.24 8.592-15.888 2.336-5.664 5.296-13.232 8.896-22.72l76.608-189.184c6-14.4 9.008-24.864 9.008-31.408 0-6.8-2.848-13.024-8.512-18.688a27.936 27.936 0 0 0-20.496-8.512c-4.672 0-8.672 0.848-12 2.512a24.576 24.576 0 0 0-8.4 6.8c-2.272 2.864-4.704 7.264-7.296 13.2-2.608 5.92-4.832 11.168-6.704 15.68l-14 36.8H393.6l-14-37.6c-5.472-14.656-10.128-24.544-14-29.68-3.872-5.136-10.208-7.712-19.008-7.712-7.456 0-14.064 2.736-19.792 8.208-5.728 5.472-8.608 11.68-8.608 18.592 0 4 0.672 8.144 2 12.4 1.344 4.272 3.536 10.208 6.608 17.808l75.008 190.4 7.68 19.696c3.008 7.68 6.208 14.032 9.6 19.104 3.408 5.072 7.872 9.168 13.408 12.304 5.536 3.136 12.368 4.688 20.512 4.688z m202.352 0c8.928 0 16.16-2.976 21.696-8.912 5.536-5.92 8.304-14.96 8.304-27.104V272.32c0-12.128-2.768-21.2-8.304-27.2-5.536-6-12.768-9.008-21.696-9.008-8.528 0-15.568 3.04-21.104 9.12-5.536 6.048-8.288 15.088-8.288 27.088V503.296c0 12 2.72 21.008 8.192 27.008 5.472 6 12.528 8.992 21.2 8.992z m-202.752-62.608l-43.408-121.008h87.6l-44.192 121.008zM550.4 862.624l356.896-206.064a76.8 76.8 0 0 0 38.4-66.512v-105.664a66.576 66.576 0 1 0-51.2 0v105.664a25.6 25.6 0 0 1-12.8 22.176L524.8 818.272a25.6 25.6 0 0 1-25.6 0L142.304 612.224a25.6 25.6 0 0 1-12.8-22.176v-75.872a25.6 25.6 0 1 0-51.2 0v75.872a76.8 76.8 0 0 0 38.4 66.512L473.6 862.608a76.8 76.8 0 0 0 76.8 0z"  horiz-adv-x="1024" />
      
      <glyph glyph-name="gaokekao" unicode="&#59411;" d="M896.048 768.048c63.072-63.056 46.576-190.24-30.24-329.568l-8.96-15.84c-7.44-12.8-15.36-25.712-23.792-38.656a856.848 856.848 0 0 0 37.04-62.336l8.16-15.664c65.984-129.984 77.28-246.544 17.792-306.032-65.44-65.44-199.92-45.216-345.392 39.2l-15.92 9.456A913.952 913.952 0 0 0 512 62.928l9.28 6.112c-18.736-12.496-37.392-24-55.84-34.432l-15.792-8.704c-136.24-73.12-259.84-87.84-321.696-25.952-61.872 61.872-47.168 185.456 25.952 321.696l8.704 15.776a885.344 885.344 0 0 0 28.32 46.56C86.96 543.92 56.736 696.864 127.952 768.064 187.44 827.536 304 816.24 433.984 750.272l15.68-8.176a857.648 857.648 0 0 0 55.584-32.672l6.72-4.368a895.04 895.04 0 0 0 38.688 23.792l15.824 8.96c139.328 76.816 266.512 93.312 329.568 30.24zM801.44 338.272l-5.76-7.776a1060.32 1060.32 0 0 0-9.168-12.08l-12.608-16.064a1161.28 1161.28 0 0 0-85.248-95.008 1166.032 1166.032 0 0 0-86.992-78.752l-16.048-12.864c-9.28-7.296-18.592-14.352-27.888-21.168l3.184-1.952 15.44-9.184c131.584-76.352 240.88-89.888 283.488-47.264 38.112 38.08 31.76 130.432-26.96 246.128l-7.904 15.152a793.984 793.984 0 0 1-23.536 40.832z m-594-25.568l-8.416-15.264c-65.728-122.432-74.752-221.392-34.88-261.28 39.904-39.888 138.864-30.864 260.8 34.592l15.264 8.416a816.448 816.448 0 0 1 26.08 15.408l-3.776 2.752a1102.784 1102.784 0 0 0-72.128 58.336l-15.856 14.224a1190.816 1190.816 0 0 0-39.2 37.44 1140.368 1140.368 0 0 0-110 127.2l-2.768 3.744c-5.312-8.64-10.368-17.184-15.12-25.568zM512 643.264l-9.52-6.784c-8.16-5.904-16.32-11.984-24.432-18.224l-15.312-12.016-15.68-12.8a1119.472 1119.472 0 0 1-75.52-68.976c-45.056-45.056-85.2-92.656-118.8-140.48l2.352-3.312 11.392-15.68a1089.36 1089.36 0 0 1 105.056-121.44c12.32-12.32 24.832-24.272 37.168-35.536l15.504-13.92a1050 1050 0 0 1 68.368-55.328l15.696-11.392 3.728-2.608 7.6 5.376c11.472 8.24 22.88 16.8 34.016 25.552l15.68 12.56a1114.896 1114.896 0 0 1 83.168 75.28 1108.704 1108.704 0 0 1 81.168 90.448l12.32 15.68a991.328 991.328 0 0 1 25.312 34.352 1233.168 1233.168 0 0 1-7.84 10.96l-11.632 15.696a1083.2 1083.2 0 0 1-5.536 7.28l-12.32 15.68a1110.144 1110.144 0 0 1-81.472 90.832 1126.24 1126.24 0 0 1-59.92 55.744l-15.616 13.248a1038.032 1038.032 0 0 1-37.856 30.048l-15.696 11.632c-3.84 2.784-7.712 5.536-11.376 8.128zM588.8 460.8a108.64 108.64 0 1 0-153.6-153.632 108.64 108.64 0 0 0 153.6 153.632z m-117.408-36.208a57.44 57.44 0 1 1 81.216-81.216 57.44 57.44 0 0 1-81.216 81.216zM164.16 731.84c-45.76-45.728-26.048-165.216 58.4-302.144a1135.264 1135.264 0 0 0 112.784 130.96 1170.624 1170.624 0 0 0 78.976 72.16l16.032 13.088 16.064 12.608c6.624 5.104 13.232 10.08 19.856 14.928a795.328 795.328 0 0 1-40.32 23.264l-15.136 7.904C294.592 763.6 202.256 769.952 164.16 731.84z m427.52-38.592l-15.328-8.672a823.04 823.04 0 0 1-18.608-11.136l11.792-8.784a1090.8 1090.8 0 0 0 40.144-31.84l15.968-13.552a1179.248 1179.248 0 0 0 63.008-58.608 1161.28 1161.28 0 0 0 85.248-95.008l12.608-16.064c2.08-2.688 4.112-5.376 6.144-8.048l8.768-11.84c3.792 6.16 7.424 12.224 10.88 18.176l8.672 15.328c69.184 125.504 79.664 227.856 38.88 268.64-40.8 40.8-143.152 30.32-268.16-38.592z"  horiz-adv-x="1024" />
      
      <glyph glyph-name="wendang" unicode="&#59309;" d="M965.6832 586.24h-233.216a51.9168 51.9168 0 0 0-52.6848 51.0464V874.5472l285.9008-288.3072z m21.2992-71.68v-519.7312c0-67.6864-56.8832-122.8288-126.8224-122.8288H163.84C93.9008-128 37.0176-72.8576 37.0176-5.1712V773.12C37.0176 840.8576 94.0032 896 163.84 896h441.856v-258.7136c0-67.6352 56.8832-122.7776 126.7712-122.7776l254.5152 0.0512z m-286.208-420.5568a36.352 36.352 0 0 1 37.0176 35.84 36.4032 36.4032 0 0 1-37.0176 35.84H323.2256a36.4032 36.4032 0 0 1-37.0176-35.84c0-19.9168 16.5376-35.84 37.0176-35.84h377.5488z m0 215.7568a36.352 36.352 0 0 1 37.0176 35.84 36.4032 36.4032 0 0 1-37.0176 35.84H323.2256a36.4032 36.4032 0 0 1-37.0176-35.84c0-19.8144 16.5376-35.84 37.0176-35.84h377.5488z"  horiz-adv-x="1024" />
      
      <glyph glyph-name="nav_search" unicode="&#59264;" d="M1006.912-18.432l-193.6 193.408a447.296 447.296 0 0 1 89.728 269.12 451.072 451.072 0 0 1-902.144-0.128 450.944 450.944 0 0 1 451.072-450.816 449.152 449.152 0 0 1 295.232 110.464l190.848-190.784a48.576 48.576 0 0 1 68.864 0 48.64 48.64 0 0 1 0 68.736zM451.968 90.24A354.304 354.304 0 0 0 97.856 444.16a354.24 354.24 0 0 0 354.112 353.728c195.2 0 354.048-158.784 354.048-353.856a354.304 354.304 0 0 0-354.048-353.728z"  horiz-adv-x="1024" />
      
      <glyph glyph-name="xiala" unicode="&#59402;" d="M543.012571 127.853714l304.347429 354.816A73.142857 73.142857 0 0 1 791.771429 603.428571h-559.542858a73.142857 73.142857 0 0 1-55.588571-120.685714l302.08-352.475428a43.885714 43.885714 0 0 1 61.805714-4.754286l2.486857 2.340571z"  horiz-adv-x="1024" />
      
      <glyph glyph-name="youjiantou" unicode="&#59361;" d="M677.888 384.597333L313.173333 23.466667a48.768 48.768 0 0 1-0.512-68.778667 48.768 48.768 0 0 1 68.821334-0.512l395.306666 391.424a48.768 48.768 0 0 1 4.693334 72.490667l-395.093334 399.018666c-8.96 9.386667-21.418667 14.72-34.389333 14.762667a48.810667 48.810667 0 0 1-34.901333-83.029333l360.704-364.288z"  horiz-adv-x="1024" />
      
      <glyph glyph-name="zuojiantou" unicode="&#59356;" d="M346.112 384.597333l364.672-361.088c19.072-18.901333 19.285333-49.621333 0.512-68.778666a48.768 48.768 0 0 0-68.821333-0.512L247.168 345.6a48.768 48.768 0 0 0-4.693333 72.490667l395.093333 399.018666c8.96 9.386667 21.418667 14.72 34.389333 14.762667a48.810667 48.810667 0 0 0 34.901334-83.029333l-360.704-364.288z"  horiz-adv-x="1024" />
      
    </font>
</defs>
</svg>
